Видеорегистратор Zeepin T690C | mysku

Видеорегистратор Zeepin T690C

Перейти в магазин

Добрый день, уважаемые читатели. Сегодня рассмотрим новинку автомобильный видеорегистратор Zeepin T690C. Эти регистраторы есть разных конфигураций (с задней камерой, с GPS), у меня появился самый простой вариант.

Фирма Zeepin появилась на рынке китайских регистраторов недавно, но уже наштамповала обширный ассортимент устройств.
На сайте уже был обзор модели A307.

Заявленные характеристики T690C:
Чип: Novatek 96663 V2
Кодек: h.264
Сенсор: спереди: OV4689/323
Батарея: 5 В-2.5F супер конденсатор
Угол объектива: 170 градусов класса широкоугольный объектив
Разрешение видео: H.264 2160 P/30fps, H.264 1080 P/30fps, h.264 1080 P/60fps (у меня 1080 версия)
Формат видео: MP4
Максимальная хранения: карты памяти до 64 г (не входит в комплект)
Рабочее напряжение: DC 5 В, 1A
Запись файла время: 1 минута, 3 минуты, 5 минут
Язык система: английский/французский/испанский/португальский/итальянский/упрощенный китайский/русский
Аудио запись: есть
Экран: 2.31"
Функция обнаружения движения, G — сенсор.
Поддержка GPS для записи скорости, маршрута.

Поставляется устройство в такой просто оформленной коробке:

Внутри все аккуратно разложено в картонные перегородки:

Комплектация стандартная:

Карты памяти у меня в комплекте нет, но при покупке можно выбрать регистратор с картой.
Инструкция на англ.
Блок питания:

Кабель мини usb угловой, есть предохранитель 3 А.
Выдает 1 ампер:

Есть красный светодиод:

Длина кабеля блока питания ровно 4 метра.

Внешний вид устройства:

Кронштейн (быстросъемный) для крепления на ветровое не поворотный, тут регулируется сама камера.
По вертикали 90 градусов и по горизонтали +- 30 градусов.
Сверху порт мини usb под заднюю камеру.
Размеры далеко не микро: 8х6х5 см.
Спереди экран и пять кнопок управления:

кнопка записи мигает красным
С одного бока:

Разъем питания, вход для GPS приемника (покупается отдельно), и AV выход.
С другого бока:

Слот для микро sd карты, кнопки: включения, сброса и меню.
Отверстия для вентиляции с обоих сторон, греется при работе умеренно.

Разборка устройства:

Видны ионисторы и батарейка для часов.

wi-fi чип RTL8189ES у меня не активен.
smos
«Novatek» NT96632BG про отличие чипов.
Память

Сенсор 4689
OmniVision OV4689 Более дорогое решение для видеорегистраторов. Российские пользователи утверждают – это один из лучших сенсоров для съёмки ночью. Четырехмегапиксельный CMOS-датчик снимает в разрешении 2688х1520 (соотношение сторон 16:9). Используется он в основном в системах видеонаблюдения, однако последнее время часто встречается и в видеорегистраторах. В нем используются пиксели размером 2 микрона OmniBSI-2, которые обеспечивают сенсору лучшую светочувствительность в своём классе и расширенный динамический диапазон (HDR). Сенсор может захватывать в полном разрешении 4-мегапиксельное видео с 90 fps, в FullHD с 120 fps и в HD с 180 fps. Большая частота кадров позволяет датчику получать чистые снимки быстродвижущихся объектов. Для видеосъёмки используются фреймовый «последовательный HDR» или строчный «шахматный HDR». Второй вариант по сравнению с первым обеспечивает меньше артефактов во время движения и снижает требования к памяти видеорегистратора для обработки. Эти режимы позволяют получать полноценное 4-мегапиксельное HDR-видео при слишком ярком или слишком тусклом освещении, обеспечивая максимальный контраст картинки.

Меню:

LDW (Lane Departure Warning) – система предупреждения о покидании текущей полосы, FCW (forward collision warning), извещающий звуковым сигналом об опасном приближении к впереди едущему объекту (автомашине) — необычные «примочки». Работаю — пищат))
Есть датчик удара (G сенсор): при ударе начинается аварийная запись — при этом ролик не будет затерт и записывается в отдельную папку.

Можно добавить номер своей машины к видео, тоже необычная функция.
В этой прошивке только 720 и 1080 разрешение, 2160 (чип ее и поддерживает) в новой прошивке. У меня ранний образец для обзора.
Версия прошивки:

Ее можно сменить, сбросив на флешку и просто включив регистратор с ней.

Режимы работы:
Видео:

Запись звука отключается одной кнопкой.
Фото:

Просмотр:

Напоминание что пора бы включить ближний свет:

Так же есть напоминание об усталости водителя: 2 и 4 часа. Заботливое ПО ничего сказать.

Установка в машину:

Какой хороший цемент скотч, не отдирается совсем…

Примеры как снимает фото:
День:

Разрешение 4*3к
Ночь:

Зум:

Примеры видео:

Параметры файла
Complete name: K:\CARDV\Movie\2017_1224_150646_055.MP4
Format: MPEG-4
Format profile: Base Media / Version 2
Codec ID: mp42 (isom/avc1/mp42)
File size: 77.6 MiB
Duration: 42 s 733 ms
Overall bit rate: 15.2 Mb/s
Movie_More: DEMO1
Encoded date: UTC 2017-12-24 15:07:26
Tagged date: UTC 2017-12-24 15:07:26
Origin: NOVATEK
IsTruncated: Yes
Video
ID: 1
Format: AVC
Format/Info: Advanced Video Codec
Format profile: High@L5.1
Format settings, CABAC: Yes
Format settings, ReFrames: 1 frame
Format settings, GOP: M=1, N=15
Codec ID: avc1
Codec ID/Info: Advanced Video Coding
Duration: 42 s 733 ms
Bit rate: 14.7 Mb/s
Width: 1 920 pixels
Height: 1 080 pixels
Display aspect ratio: 16:9
Frame rate mode: Constant
Frame rate: 30.000 FPS
Color space: YUV
Chroma subsampling: 4:2:0
Bit depth: 8 bits
Scan type: Progressive
Bits/(Pixel*Frame): 0.237
Stream size: 75.1 MiB (97%)
Language: English
Encoded date: UTC 2017-12-24 15:07:26
Tagged date: UTC 2017-12-24 15:07:26
Audio
ID: 2
Format: AAC
Format/Info: Advanced Audio Codec
Format profile: LC
Codec ID: 40
Duration: 42 s 688 ms
Bit rate mode: Constant
Bit rate: 96.0 kb/s
Channel(s): 1 channel
Channel positions: Front: C
Sampling rate: 32.0 kHz
Frame rate: 31.250 FPS (1024 spf)
Compression mode: Lossy
Stream size: 500 KiB (1%)
Language: English
Encoded date: UTC 2017-12-24 15:07:26
Tagged date: UTC 2017-12-24 15:07:26

Вечер:
yadi.sk/i/6qFP5CY03Qu4D5
там звук.
Ночь:
yadi.sk/i/m8WX28Cd3Qu4DA
Снег:
yadi.sk/i/FTVm8upe3Qu4DK

как снимает Филипс, для примера
Обзор на него
yadi.sk/i/HipqDD2y3QtDTv
yadi.sk/i/j75f3GSQ3QtDTz

С каждым годом функционал видеорегистраторов растет, появляются новые возможности. Тут возможностей много (в том числе не реализованных). Главное, что бы производитель не забывал о поддержке и выпускал новые прошивки.
Рекомендовать или отговаривать от покупки не буду, выбор регистратора это почти интимный процесс (судя по реакции в комментариях на обзоры регистраторов), я как мог рассказал о новинке.

Спасибо за внимание! Удачных покупок!

Товар предоставлен для написания обзора магазином. Обзор опубликован в соответствии с п.18 Правил сайта.

Добавить комментарий

Ваш e-mail не будет опубликован. Обязательные поля помечены *

Наверх